<?xml version="1.0" standalone="no"?>
<!DOCTYPE svg PUBLIC "-//W3C//DTD SVG 1.1//EN" "http://www.w3.org/Graphics/SVG/1.1/DTD/svg11.dtd" >
<!--
2013-9-30: Created.
-->
<svg>
<metadata>
Created by iconfont
</metadata>
<defs>

<font id="iconfont" horiz-adv-x="1024" >
  <font-face
    font-family="iconfont"
    font-weight="500"
    font-stretch="normal"
    units-per-em="1024"
    ascent="896"
    descent="-128"
  />
    <missing-glyph />
    
    <glyph glyph-name="yonghu" unicode="&#58891;" d="M512.252018 629.418667a161.166222 161.166222 0 1 1 0-322.332445 161.166222 161.166222 0 0 1 0 322.332445z m0-386.844445c-173.681778 0-273.066667-60.643556-288.199111-175.217778a419.157333 419.157333 0 0 1 576.284444 0c-15.018667 114.574222-114.403556 175.217778-288.085333 175.217778z m0-354.588444A483.555556 483.555556 0 0 0 166.936462 710.144 480.654222 480.654222 0 0 0 502.182684 855.096889H512.252018a483.555556 483.555556 0 0 0 345.201778-822.158222 480.711111 480.711111 0 0 0-335.075556-144.952889H512.252018z"  horiz-adv-x="1024" />

    
    <glyph glyph-name="header_dianhua" unicode="&#59008;" d="M636.288 206.976l-45.184-33.216c0 0-45.248-21.056-99.52 27.136-54.272 48.256-150.656 158.464-177.792 221.632C286.656 485.824 340.928 512.96 340.928 512.96S411.776 571.712 414.72 582.2719999999999c3.008 10.56 42.24 52.736-42.176 165.76C288.192 861.056 268.608 838.4639999999999 223.36 803.776 178.176 769.152 114.752 701.312 101.312 622.912 87.744 544.576 78.72 448.128 193.28 276.288s287.808-302.912 384.256-324.032c96.576-21.056 164.352-34.624 260.672 43.712 96.512 78.4 113.152 85.888 69.376 141.632-43.648 55.808-139.84 122.688-154.24 125.44-14.336 2.88-35.008 7.68-67.456-16.32C653.376 222.72000000000003 636.288 206.976 636.288 206.976z"  horiz-adv-x="1024" />

    
    <glyph glyph-name="dianhua5" unicode="&#58948;" d="M635.6 248.4L598.7 220s-36.9-18-81.3 23.2c-44.3 41.3-123 135.7-145.2 189.8-22.2 54.2 22.2 77.4 22.2 77.4s57.8 50.3 60.2 59.3c2.5 9 34.5 45.2-34.4 141.9-68.9 96.8-84.9 77.4-121.8 47.7-36.9-29.6-88.7-87.7-99.7-154.9-11.1-67.1-18.4-149.7 75.1-296.8 93.5-147.1 235-259.4 313.7-277.4 78.9-18 134.2-29.6 212.8 37.4 78.8 67.1 92.4 73.5 56.6 121.3C821.5 236.8 743 294 731.2 296.4c-11.7 2.5-28.6 6.6-55.1-14-26.5-20.5-40.5-34-40.5-34"  horiz-adv-x="1024" />

    
    <glyph glyph-name="phone_header" unicode="&#58927;" d="M957.696839 213.555696a74.215818 74.215818 0 0 1-19.620273 2.559167 682.444304 682.444304 0 0 0-267.575038 92.698684l-124.546085-125.683492A950.303693 950.303693 0 0 0 312.786972 412.601952l124.261734 126.820899a686.140877 686.140877 0 0 0-92.983036 268.712445V810.694462a78.481095 78.481095 0 0 1-2.843518 19.05157A85.305538 85.305538 0 0 1 259.044484 896H85.305538a85.305538 85.305538 0 0 1-85.305538-83.599427V810.694462a80.755909 80.755909 0 0 1 1.421759-14.501941 1019.969882 1019.969882 0 0 1 188.809591-501.312212 1017.695068 1017.695068 0 0 1 232.315415-232.315415A1023.666455 1023.666455 0 0 1 923.290272-127.66645500000004a85.305538 85.305538 0 0 1 15.070645 0h1.990463A85.305538 85.305538 0 0 1 1023.666455-42.36091699999997v173.454593a85.305538 85.305538 0 0 1-65.969616 82.46202z"  horiz-adv-x="1024" />

    
    <glyph glyph-name="shoucang-solid" unicode="&#58950;" d="M544 790.4l118.4-240L928 512c32-3.2 41.6-41.6 19.2-64l-192-185.6L800 0c6.4-28.8-25.6-54.4-54.4-38.4L512 86.39999999999998l-236.8-124.8c-25.6-16-57.6 6.4-54.4 38.4l44.8 262.4-192 185.6c-19.2 22.4-9.6 60.8 22.4 64l265.6 38.4L480 790.4c12.8 28.8 51.2 28.8 64 0z"  horiz-adv-x="1024" />

    
    <glyph glyph-name="xiangxi" unicode="&#58890;" d="M259.79999999-6.100000000000023l2e-8 489.90000001c0 31.5-28.6 57.1-63.90000001 57.1s-63.9-25.50000001-63.9-57.00000001l0-490c0-31.5 28.6-57.1 63.9-57.09999999s63.9 25.6 63.89999999 57.09999999zM575.9 0.7000000000000455l0 766.6c0 35.30000001-28.6 63.9-63.9 63.9s-63.9-28.6-63.9-63.9L448.1 0.7000000000000455c0-35.30000001 28.6-63.9 63.9-63.9s63.9 28.6 63.9 63.9zM764.19999999 767.2999999900001L764.19999999 0.7000000100000534c0-35.30000001 28.6-63.9 63.90000002-63.90000001S891.99999999-34.60000000000002 892.00000001 0.6999999900000375l0 766.60000002c0 35.30000001-28.6 63.9-63.90000001 63.89999998s-63.9-28.6-63.89999999-63.89999999z"  horiz-adv-x="1024" />

    
    <glyph glyph-name="shoucang" unicode="&#59059;" d="M716.8-25.6c-17.066667 0-29.866667 4.266667-46.933333 12.8l-145.066667 76.8c-8.533333 4.266667-21.333333 4.266667-29.866667 0l-145.066666-76.8c-34.133333-17.066667-72.533333-12.8-102.4 8.533333s-42.666667 59.733333-38.4 93.866667l25.6 162.133333c0 8.533333 0 21.333333-8.533334 25.6l-115.2 115.2c-25.6 25.6-34.133333 64-25.6 98.133334 12.8 34.133333 42.666667 59.733333 76.8 64l162.133334 21.333333c8.533333 0 17.066667 8.533333 25.6 17.066667L426.666667 742.4c17.066667 34.133333 51.2 55.466667 85.333333 55.466667 38.4 0 68.266667-21.333333 85.333333-55.466667L669.866667 597.333333c4.266667-8.533333 12.8-17.066667 25.6-17.066666l162.133333-25.6c38.4-4.266667 68.266667-29.866667 76.8-64 12.8-34.133333 0-72.533333-25.6-98.133334l-115.2-115.2c-8.533333-8.533333-12.8-17.066667-8.533333-25.6L810.666667 85.333333c4.266667-38.4-8.533333-72.533333-38.4-93.866666-17.066667-12.8-38.4-17.066667-55.466667-17.066667zM512 729.6c-12.8 0-21.333333-8.533333-29.866667-17.066667L413.866667 567.466667c-17.066667-29.866667-42.666667-51.2-76.8-55.466667l-157.866667-21.333333c-12.8 0-21.333333-8.533333-25.6-21.333334-4.266667-12.8 0-25.6 8.533333-29.866666l115.2-115.2c21.333333-21.333333 34.133333-55.466667 29.866667-85.333334l-25.6-162.133333c0-12.8 4.266667-21.333333 12.8-29.866667 4.266667-8.533333 17.066667-8.533333 29.866667-4.266666l145.066666 76.8c29.866667 12.8 64 12.8 89.6 0l145.066667-76.8c12.8-4.266667 21.333333-4.266667 34.133333 4.266666 8.533333 8.533333 12.8 17.066667 12.8 29.866667l-25.6 162.133333c-4.266667 29.866667 4.266667 64 29.866667 85.333334l115.2 115.2c8.533333 8.533333 12.8 21.333333 8.533333 29.866666-4.266667 12.8-12.8 21.333333-25.6 21.333334L686.933333 512c-29.866667 4.266667-59.733333 25.6-72.533333 51.2l-72.533333 145.066667c-8.533333 12.8-17.066667 21.333333-29.866667 21.333333z"  horiz-adv-x="1024" />

    
    <glyph glyph-name="liebiao" unicode="&#58991;" d="M827.762105 608.885863 462.272947 608.885863c-63.439868 0-115.061572 51.621704-115.061572 115.061572 0 63.439868 51.621704 115.061572 115.061572 115.061572l365.490182 0c63.439868 0 115.061572-51.621704 115.061572-115.061572C942.824701 660.507568 891.201973 608.885863 827.762105 608.885863zM462.272947 784.862807c-33.590026 0-60.914348-27.324322-60.914348-60.915371 0-33.590026 27.324322-60.914348 60.914348-60.914348l365.490182 0c33.590026 0 60.914348 27.324322 60.914348 60.914348 0 33.591049-27.324322 60.915371-60.914348 60.915371L462.272947 784.862807zM827.762105-27.336346 462.272947-27.336346c-63.439868 0-115.061572 51.620681-115.061572 115.061572 0 63.438844 51.621704 115.060549 115.061572 115.060549l365.490182 0c63.439868 0 115.061572-51.621704 115.061572-115.060549C942.824701 24.284335 891.201973-27.336346 827.762105-27.336346zM462.272947 148.640598c-33.590026 0-60.914348-27.325345-60.914348-60.914348 0-33.591049 27.324322-60.915371 60.914348-60.915371l365.490182 0c33.590026 0 60.914348 27.324322 60.914348 60.915371 0 33.589003-27.324322 60.914348-60.914348 60.914348L462.272947 148.640598zM827.762105 284.006612 462.272947 284.006612c-63.439868 0-115.061572 51.620681-115.061572 115.061572 0 63.439868 51.621704 115.061572 115.061572 115.061572l365.490182 0c63.439868 0 115.061572-51.621704 115.061572-115.061572C942.824701 335.627293 891.201973 284.006612 827.762105 284.006612zM462.272947 459.982532c-33.590026 0-60.914348-27.324322-60.914348-60.914348 0-33.591049 27.324322-60.915371 60.914348-60.915371l365.490182 0c33.590026 0 60.914348 27.324322 60.914348 60.915371 0 33.590026-27.324322 60.914348-60.914348 60.914348L462.272947 459.982532zM178.003602 608.885863l-13.537318 0c-63.439868 0-115.061572 51.621704-115.061572 115.061572 0 63.439868 51.621704 115.061572 115.061572 115.061572l13.537318 0c63.439868 0 115.061572-51.621704 115.061572-115.061572C293.065174 660.507568 241.442446 608.885863 178.003602 608.885863zM164.466284 784.862807c-33.591049 0-60.915371-27.324322-60.915371-60.915371 0-33.590026 27.324322-60.914348 60.915371-60.914348l13.537318 0c33.590026 0 60.914348 27.324322 60.914348 60.914348 0 33.591049-27.324322 60.915371-60.914348 60.915371L164.466284 784.862807zM178.003602-27.336346l-13.537318 0c-63.439868 0-115.061572 51.620681-115.061572 115.061572 0 63.438844 51.621704 115.060549 115.061572 115.060549l13.537318 0c63.439868 0 115.061572-51.621704 115.061572-115.060549C293.065174 24.284335 241.442446-27.336346 178.003602-27.336346zM164.466284 148.640598c-33.591049 0-60.915371-27.325345-60.915371-60.914348 0-33.591049 27.324322-60.915371 60.915371-60.915371l13.537318 0c33.590026 0 60.914348 27.324322 60.914348 60.915371 0 33.589003-27.324322 60.914348-60.914348 60.914348L164.466284 148.640598zM178.003602 284.006612l-13.537318 0c-63.439868 0-115.061572 51.620681-115.061572 115.061572 0 63.439868 51.621704 115.061572 115.061572 115.061572l13.537318 0c63.439868 0 115.061572-51.621704 115.061572-115.061572C293.065174 335.627293 241.442446 284.006612 178.003602 284.006612zM164.466284 459.982532c-33.591049 0-60.915371-27.324322-60.915371-60.914348 0-33.591049 27.324322-60.915371 60.915371-60.915371l13.537318 0c33.590026 0 60.914348 27.324322 60.914348 60.915371 0 33.590026-27.324322 60.914348-60.914348 60.914348L164.466284 459.982532z"  horiz-adv-x="1024" />

    
    <glyph glyph-name="liebiao1" unicode="&#58882;" d="M116.258455 430.96618h232.51505A116.257525 116.257525 0 0 1 465.03103 547.223705v232.51505A116.257525 116.257525 0 0 1 348.773505 895.99628h-232.51505A116.257525 116.257525 0 0 1 0.00093 779.738755v-232.51505A116.257525 116.257525 0 0 1 116.258455 430.96618zM93.00695 779.738755a23.251505 23.251505 0 0 0 23.251505 23.251505h232.51505a23.251505 23.251505 0 0 0 23.251505-23.251505v-232.51505a23.251505 23.251505 0 0 0-23.251505-23.251505h-232.51505a23.251505 23.251505 0 0 0-23.251505 23.251505zM907.739685 895.99628h-232.51505A116.257525 116.257525 0 0 1 558.03705 779.273725v-232.51505a116.722555 116.722555 0 0 1 116.257525-116.257525h232.51505a116.722555 116.722555 0 0 1 116.257525 116.257525v232.51505A116.722555 116.722555 0 0 1 907.739685 895.99628z m23.251505-348.772575a23.716535 23.716535 0 0 0-23.251505-23.251505h-232.51505a23.251505 23.251505 0 0 0-23.251505 23.251505v232.51505a23.251505 23.251505 0 0 0 23.251505 23.251505h232.51505a23.251505 23.251505 0 0 0 23.251505-23.251505zM907.739685 337.96016h-232.51505a116.257525 116.257525 0 0 1-116.257525-116.257525v-232.51505a116.722555 116.722555 0 0 1 116.257525-116.257525h232.51505a116.722555 116.722555 0 0 1 116.257525 116.257525v232.51505a116.722555 116.722555 0 0 1-116.257525 116.257525z m23.251505-348.772575a23.716535 23.716535 0 0 0-23.251505-23.251505h-232.51505a23.251505 23.251505 0 0 0-23.251505 23.251505v232.51505a23.251505 23.251505 0 0 0 23.251505 23.251505h232.51505a23.251505 23.251505 0 0 0 23.251505-23.251505zM348.773505 337.96016h-232.51505A116.722555 116.722555 0 0 1 0.00093 220.772575v-232.51505A116.722555 116.722555 0 0 1 116.258455-127.06994h232.51505a116.722555 116.722555 0 0 1 116.257525 116.257525v232.51505A116.257525 116.257525 0 0 1 348.773505 337.96016z m23.251505-348.772575a23.251505 23.251505 0 0 0-23.251505-23.251505h-232.51505a23.716535 23.716535 0 0 0-23.251505 23.251505v232.51505a23.251505 23.251505 0 0 0 23.251505 23.251505h232.51505a23.251505 23.251505 0 0 0 23.251505-23.251505z"  horiz-adv-x="1024" />

    
    <glyph glyph-name="sousuo" unicode="&#58898;" d="M448.564225 92.889853c-193.9462 0-351.735923 158.605298-351.735923 353.553315S254.618025 799.997506 448.564225 799.997506s351.735923-158.605298 351.735923-353.553315S642.510426 92.889853 448.564225 92.889853zM448.564225 750.407064c-166.745698 0-302.400285-136.355551-302.400285-303.962873s135.653563-303.962873 302.400285-303.962873 302.400285 136.355551 302.400285 303.962873S615.310947 750.407064 448.564225 750.407064zM885.841384-31.997506 660.969846 189.41628 702.299137 230.301456 927.170674 8.88767Z"  horiz-adv-x="1024" />

    
    <glyph glyph-name="guifandunpai" unicode="&#58917;" d="M835.584 381.504l-318.944 0 0-416.256c0 0-222.784 107.488-319.936 416.736l319.936 0 0 401.024c179.552-151.296 369.504-105.568 369.504-105.568-3.488-175.84-50.528-295.968-50.528-295.968l0 0zM942.112 792.16c-211.552-155.264-427.904 82.496-427.904 82.496-228.32-242.56-425.44-84.928-425.44-84.928-48.064-696.16 425.44-895.104 425.44-895.104 514.368 271.712 427.904 897.536 427.904 897.536l0 0z"  horiz-adv-x="1024" />

    
    <glyph glyph-name="xiangxia" unicode="&#58962;" d="M804.318208 142.848l-256-256a58.88 58.88 0 0 0-16.896-10.752 51.2 51.2 0 0 0-38.912 0 47.616 47.616 0 0 0-16.896 10.752l-256 256a51.2 51.2 0 0 0 72.704 72.704L460.766208 46.592V844.8a51.2 51.2 0 0 0 102.4 0v-798.208l168.448 168.96a51.2 51.2 0 0 0 72.704-72.704z"  horiz-adv-x="1024" />

    
    <glyph glyph-name="jianzhujiancai" unicode="&#58914;" d="M360.064 419.0208l0-164.4288L123.3408 254.592c0 54.8096 0 109.5936 0 164.4288L360.064 419.0208 360.064 419.0208zM307.7376 661.9904c40.192 0 80.4096 0 120.6016 0-22.7584-73.216-45.5936-146.432-68.3776-219.6224-78.8736 0-157.7472 0-236.6208 0C184.8064 515.5584 246.3232 588.7488 307.7376 661.9904L307.7376 661.9904zM595.6096 661.9904c40.2432 0 80.4608 0 120.704 0 61.44-73.216 122.9568-146.432 184.3968-219.6224-78.9504 0-157.9008 0-236.8512 0C641.1008 515.5584 618.3424 588.8 595.6096 661.9904L595.6096 661.9904zM451.6352 661.9904c-19.328-73.1904-38.7328-146.432-58.0864-219.6224 78.8992 0 157.7984 0 236.6976 0-19.3024 73.1904-38.656 146.432-57.9584 219.6224C532.096 661.9904 491.8528 661.9904 451.6352 661.9904L451.6352 661.9904zM900.7104 222.5664l0-164.4032-236.7488 0c0 54.8096 0 109.5936 0 164.4032L900.7104 222.5664 900.7104 222.5664zM692.7616 133.376c26.24-10.9568 51.2-26.3424 72.2944-46.4384l27.9552 0c-27.648 30.1568-63.1552 51.84-100.2496 65.6384C692.7616 146.176 692.7616 139.776 692.7616 133.376L692.7616 133.376zM692.7616 107.264l0-20.352 33.7408 0C715.8528 94.8224 704.512 101.5808 692.7616 107.264L692.7616 107.264zM826.3424 86.9376l24.0896 0c-37.8624 52.8384-95.488 88.1408-154.5472 106.9056l-3.1488 0 0-16.3584C743.2448 160.6656 792.0896 130.7648 826.3424 86.9376L826.3424 86.9376zM871.9616 100.9664 871.9616 129.28c-23.04 25.856-50.2528 47.36-79.488 64.5376l-33.6384 0C802.0992 172.2624 842.3936 141.3632 871.9616 100.9664L871.9616 100.9664zM871.9616 164.9664l0 28.8512-35.3024 0C848.9472 185.0368 860.8 175.3856 871.9616 164.9664L871.9616 164.9664zM630.4 222.5664l0-164.4032-236.7744 0c0 54.8096 0 109.5936 0 164.4032L630.4 222.5664 630.4 222.5664zM422.4 133.376c26.24-10.9568 51.2512-26.3424 72.32-46.4384l27.9552 0c-27.648 30.1568-63.1808 51.84-100.2752 65.6384C422.4 146.176 422.4 139.776 422.4 133.376L422.4 133.376zM422.4 107.264l0-20.352 33.7408 0C445.5168 94.8224 434.1504 101.5808 422.4 107.264L422.4 107.264zM556.0576 86.9376l24.0896 0c-37.8624 52.8384-95.5392 88.1408-154.5728 106.9056L422.4 193.8432l0-16.3584C472.9088 160.6656 521.7792 130.7648 556.0576 86.9376L556.0576 86.9376zM601.6512 100.9664 601.6512 129.28c-23.04 25.856-50.304 47.36-79.5648 64.5376l-33.6128 0C531.7888 172.2624 572.1088 141.3632 601.6512 100.9664L601.6512 100.9664zM601.6512 164.9664l0 28.8512-35.3024 0C578.6624 185.0368 590.4896 175.3856 601.6512 164.9664L601.6512 164.9664zM360.064 222.5664l0-164.4032L123.3408 58.1632c0 54.8096 0 109.5936 0 164.4032L360.064 222.5664 360.064 222.5664zM152.0896 133.376c26.24-10.9568 51.2256-26.3424 72.32-46.4384l27.9808 0c-27.648 30.1568-63.2064 51.84-100.3008 65.6384C152.0896 146.176 152.0896 139.776 152.0896 133.376L152.0896 133.376zM152.0896 107.264l0-20.352 33.7408 0C175.2064 94.8224 163.8656 101.5808 152.0896 107.264L152.0896 107.264zM285.7216 86.9376l24.0896 0c-37.8624 52.8384-95.488 88.1408-154.5472 106.9056L152.0896 193.8432l0-16.3584C202.624 160.6656 251.4688 130.7648 285.7216 86.9376L285.7216 86.9376zM331.3152 100.9664 331.3152 129.28c-23.04 25.856-50.2784 47.36-79.5136 64.5376L218.1632 193.8176C261.4528 172.2624 301.7728 141.3632 331.3152 100.9664L331.3152 100.9664zM331.3152 164.9664l0 28.8512-35.3024 0C308.3008 185.0368 320.128 175.3856 331.3152 164.9664L331.3152 164.9664zM900.7104 419.0208l0-164.4288-236.7488 0c0 54.8096 0 109.5936 0 164.4288L900.7104 419.0208 900.7104 419.0208zM692.7616 329.728c26.24-10.9056 51.2-26.24 72.2944-46.4128l27.9552 0c-27.648 30.1568-63.1552 51.8912-100.2496 65.6384C692.7616 342.5792 692.7616 336.1792 692.7616 329.728L692.7616 329.728zM692.7616 303.6672l0-20.352 33.7408 0C715.8528 291.2256 704.512 297.984 692.7616 303.6672L692.7616 303.6672zM826.3424 283.3152l24.0896 0c-37.8624 52.8384-95.488 88.192-154.5472 106.9056l-3.1488 0 0-16.3584C743.2448 357.0688 792.0896 327.168 826.3424 283.3152L826.3424 283.3152zM871.9616 297.3696l0 28.288c-23.04 25.9072-50.2528 47.36-79.488 64.5632l-33.6384 0C802.0992 368.6656 842.3936 337.7664 871.9616 297.3696L871.9616 297.3696zM871.9616 361.3696l0 28.8512-35.3024 0C848.9472 381.4144 860.8 371.7632 871.9616 361.3696L871.9616 361.3696zM630.4 419.0208l0-164.4288-236.7744 0c0 54.8096 0 109.5936 0 164.4288L630.4 419.0208 630.4 419.0208zM422.4 329.728c26.24-10.9056 51.2512-26.24 72.32-46.4128l27.9552 0c-27.648 30.1568-63.1808 51.8912-100.2752 65.6384C422.4 342.5792 422.4 336.1792 422.4 329.728L422.4 329.728zM422.4 303.6672l0-20.352 33.7408 0C445.5168 291.2256 434.1504 297.984 422.4 303.6672L422.4 303.6672zM556.0576 283.3152l24.0896 0c-37.8624 52.8384-95.5392 88.192-154.5728 106.9056L422.4 390.2208l0-16.3584C472.9088 357.0688 521.7792 327.168 556.0576 283.3152L556.0576 283.3152zM601.6512 297.3696l0 28.288c-23.04 25.9072-50.304 47.36-79.5648 64.5632l-33.6128 0C531.7888 368.6656 572.1088 337.7664 601.6512 297.3696L601.6512 297.3696zM601.6512 361.3696l0 28.8512-35.3024 0C578.6624 381.4144 590.4896 371.7632 601.6512 361.3696L601.6512 361.3696zM152.0896 329.728c26.24-10.9056 51.2256-26.24 72.32-46.4128l27.9808 0c-27.648 30.1568-63.2064 51.8912-100.3008 65.6384C152.0896 342.5792 152.0896 336.1792 152.0896 329.728L152.0896 329.728zM152.0896 303.6672l0-20.352 33.7408 0C175.2064 291.2256 163.8656 297.984 152.0896 303.6672L152.0896 303.6672zM285.7216 283.3152l24.0896 0c-37.8624 52.8384-95.488 88.192-154.5472 106.9056L152.0896 390.2208l0-16.3584C202.624 357.0688 251.4688 327.168 285.7216 283.3152L285.7216 283.3152zM331.3152 297.3696l0 28.288c-23.04 25.9072-50.2784 47.36-79.5136 64.5632L218.1632 390.2208C261.4528 368.6656 301.7728 337.7664 331.3152 297.3696L331.3152 297.3696zM331.3152 361.3696l0 28.8512-35.3024 0C308.3008 381.4144 320.128 371.7632 331.3152 361.3696z"  horiz-adv-x="1024" />

    
    <glyph glyph-name="ai-briefcase" unicode="&#58916;" d="M629.888 669.184c-8.64 0-15.616 6.784-15.616 15.168 0 4.224 1.792 8 4.608 10.752 2.752 2.752 6.656 4.416 11.008 4.416h79.296c8.576 0 15.424-6.784 15.424-15.232 0-8.384-6.848-15.168-15.424-15.168h-79.296zM432.768 799.232c-27.328 0-49.536-20.096-49.536-44.8v-37.312h-49.664v47.552c0 37.184 30.784 67.328 68.736 67.328h219.456c37.888 0 68.736-30.144 68.736-67.328v-47.552h-49.664v37.312c0 24.704-22.208 44.8-49.536 44.8h-158.528zM391.36 669.184h-79.36c-8.448 0-15.488 6.784-15.488 15.168 0 4.224 1.792 8 4.608 10.752 2.752 2.752 6.656 4.416 10.88 4.416h79.36c8.576 0 15.488-6.784 15.488-15.232 0-8.32-6.912-15.104-15.488-15.104zM1024 360h-1024v228.352c0 37.184 30.784 67.264 68.736 67.264h220.096c11.648-12.288 27.968-19.968 46.336-19.968h353.664c18.368 0 34.752 7.744 46.208 20.032h220.224c38.016-0.064 68.736-30.144 68.736-67.328v-228.352zM769.856 272.64v40.64h-32.896v-56.384c0-29.376 19.136-53.184 42.88-53.184h71.040c23.68 0 42.944 23.808 42.944 53.184v56.384h-32.896v-40.64c0-17.088-11.2-30.912-24.96-30.912h-41.344c-13.696-0.064-24.768 13.824-24.768 30.912zM68.736-64c-37.952 0-68.736 30.144-68.736 67.328v329.664h1024v-329.664c0-37.184-30.72-67.328-68.672-67.328h-886.592zM236.224 241.664c-13.824 0-24.96 13.888-24.96 30.912l0 40.704h-32.832v-56.384c0-29.376 19.264-53.184 42.88-53.184h71.040c23.744 0 42.944 23.808 42.944 53.184v56.384h-32.832v-40.64c0-17.088-11.072-30.912-24.896-30.912h-41.344z"  horiz-adv-x="1024" />

    
    <glyph glyph-name="xianweijing" unicode="&#58928;" d="M694.268995 577.572369l60.551002 119.358033a31.015489 31.015489 0 0 1-13.647775 41.719312l-7.927869 4.023933 32.375466 63.774949a31.039488 31.039488 0 0 1-13.615775 41.719312L664.517486 892.631176a31.231485 31.231485 0 0 1-23.711609 1.847969 31.143487 31.143487 0 0 1-18.039703-15.463745L590.350708 815.184452l-14.703757 7.463877a30.887491 30.887491 0 0 1-23.67961 1.82397 30.895491 30.895491 0 0 1-18.023703-15.463745l-152.701483-300.955039a31.039488 31.039488 0 0 1 13.639776-41.719312l165.541271-83.966616a31.023489 31.023489 0 0 1 41.727312 13.647775l63.790948 125.733927c80.69467-53.639116 122.405982-151.765498 102.470311-248.587902-26.71956-129.901859-154.133459-213.748476-284.075317-187.124915-101.190332 20.831657-177.605072 105.350263-190.172865 206.076603l186.052933-98.966369a31.015489 31.015489 0 0 1 41.991308 12.831789 31.039488 31.039488 0 0 1-12.823789 41.991307L234.17258 394.343389a30.983489 30.983489 0 0 1-41.999308-12.831788 31.055488 31.055488 0 0 1 12.823789-41.983308l26.215568-13.94377a30.511497 30.511497 0 0 1-1.015984-7.831871c1.327978-109.014203 62.350972-207.196584 153.829465-259.355725l-41.663314-146.901578a31.015489 31.015489 0 0 1 5.095916-27.167552 30.983489 30.983489 0 0 1 24.775592-12.343797H709.676741a31.071488 31.071488 0 0 1 24.775592 12.311797c5.847904 7.767872 7.759872 17.831706 5.095916 27.191552l-43.391285 153.101476c-0.199997 0.719988-0.551991 1.343978-0.807986 2.031967 66.630902 42.4873 116.750075 110.718175 133.885793 194.004802 25.591578 124.261952-29.391515 250.427872-134.965776 316.946775zM664.069493 823.19232l32.14347-16.311731-16.519727-32.535464-32.14347 16.319731 16.519727 32.527464zM560.823195 451.774443l-110.142184 55.879079 124.581946 245.547952 110.166184-55.887079-124.605946-245.539952z m107.758224-517.671467H413.321627l28.111536 99.142366c9.919836-3.167948 20.04767-5.887903 30.415499-8.023868 20.471663-4.207931 40.871326-6.239897 61.038994-6.239897a300.747042 300.747042 0 0 1 106.15025 19.471679l29.543513-104.35028z"  horiz-adv-x="1024" />

    
    <glyph glyph-name="building" unicode="&#58955;" d="M928 601H752.8L529 824.9c-9.40003 9.40003-24.5 9.40003-33.9 0L271.2 601H96c-17.7 0-32-14.3-32-32s14.3-32 32-32h832c17.7 0 32 14.3 32 32s-14.3 32-32 32Zm-566.3 0L512 751.3 662.3 601H361.7ZM928 0H96c-17.7 0-32-14.3-32-32s14.3-32 32-32h832c17.7 0 32 14.3 32 32s-14.3 32-32 32ZM154.5 128c-17.7 0-32-14.3-32-32s14.3-32 32-32h84c17.7 0 32 14.3 32 32s-14.3 32-32 32h-9V409h10c17.7 0 32 14.3 32 32s-14.3 32-32 32h-84c-17.7 0-32-14.3-32-32s14.3-32 32-32h10v-281h-11ZM365.5 127c-17.7 0-32-14.3-32-32s14.3-32 32-32h84c17.7 0 32 14.3 32 32s-14.3 32-32 32h-9V408h10c17.7 0 32 14.3 32 32s-14.3 32-32 32h-84c-17.7 0-32-14.3-32-32s14.3-32 32-32h10v-281h-11ZM575.499 128c-17.7 0-32-14.3-32-32s14.3-32 32-32h84c17.7 0 32 14.3 32 32s-14.3 32-32 32h-9V409h10c17.7 0 32 14.3 32 32s-14.3 32-32 32h-84c-17.7 0-32-14.3-32-32s14.3-32 32-32h10v-281h-11ZM784.5 127c-17.7 0-32-14.3-32-32s14.3-32 32-32h84c17.7 0 32 14.3 32 32s-14.3 32-32 32h-9V408h10c17.7 0 32 14.3 32 32s-14.3 32-32 32h-84c-17.7 0-32-14.3-32-32s14.3-32 32-32h10v-281h-11Z"  horiz-adv-x="1024" />

    
    <glyph glyph-name="gongwenbao" unicode="&#59215;" d="M69.5-17.4c0-25.8 20.9-46.6 46.6-46.6h791.8c25.7 0 46.6 20.8 46.6 46.6V388.8h-885v-406.2z m377.8 357c0 11.5 12.9 20.7 28.8 20.7h71.8c15.8 0 28.8-9.3 28.8-20.7v-51.8c0-11.5-12.8-20.7-28.8-20.7h-71.8c-15.8 0-28.8 9.3-28.8 20.7v51.8zM908 639.7H723.7C718.2 746.9 630 832 521.4 832h-18.7C394.3 832 306 746.9 300.4 639.7H116.1c-25.7 0-46.6-20.8-46.6-46.5v-189h885v189c0.1 25.8-20.8 46.5-46.5 46.5z m-561 0c5.6 81.3 73 145.5 155.7 145.7h18.7c82.7-0.1 150.1-64.3 155.7-145.7H347z"  horiz-adv-x="1024" />

    
    <glyph glyph-name="microscope" unicode="&#59525;" d="M519.999571 100.88773500000002L239.614595 175.98371099999997c-4.29977 1.099941-6.799636 5.499705-5.699694 9.799475l12.399336 46.397514c1.099941 4.29977 5.499705 6.799636 9.799474 5.699695l280.284982-75.095976c4.29977-1.099941 6.799636-5.499705 5.699694-9.799475l-12.399335-46.397514c-1.099941-4.29977-5.499705-6.89963-9.699481-5.699695zM783.985426-64.00342899999998H561.697337c-3.699802 0-5.399711 4.499759-2.699855 6.999625 10.199453 8.999518 20.798886 18.898987 31.698301 29.398424 80.595681 78.095815 131.892933 154.591716 152.591824 227.487811 12.399336 43.797653 11.399389 85.395424-2.99984 123.493382-11.399389 30.198382-31.098334 57.696908-58.496865 81.895612-0.399979 0.299984-0.799957 0.699962-1.199936 0.999947-53.397139 46.497508-75.795939 119.293608-57.496919 187.789937l40.997803 153.091797c4.599754 17.099084-5.5997 34.598146-22.598789 39.197899l-28.398478 7.599593c-2.099887 0.599968-3.399818 2.79985-2.79985 4.899738L619.994213 834.948401c1.099941 4.199775 1.699909 8.39955 1.699909 12.599325 0 21.398853-14.299234 40.997803-35.898076 46.797493-25.798618 6.89963-52.397192-8.39955-59.296823-34.298162l-9.69948-36.198061c-0.599968-2.099887-2.79985-3.399818-4.899738-2.79985L487.00134 827.648793c-17.099084 4.599754-34.598146-5.5997-39.1979-22.59879L330.309736 366.17352000000005c-6.89963-25.698623-3.099834-53.097155 10.599432-75.995928l23.798724-39.997856c2.099887-3.599807 5.5997-6.199668 9.599486-7.299609l67.796367-18.199025c3.799796-0.999946 7.899577-0.599968 11.399389 1.199936l23.798725 12.099351c37.298001 18.998982 64.696533 52.897166 75.59595 93.295001 6.599646 24.698677 28.698462 39.397889 51.49724 39.397889 11.999357 0 24.198703-4.09978 34.498152-12.999303 0.299984-0.199989 0.499973-0.499973 0.799957-0.699963 44.097637-38.897916 57.896898-84.595467 42.197739-139.892504-35.198114-123.293393-175.99057-238.087242-224.487971-274.585286-5.5997-4.199775-12.299341-6.499652-19.298966-6.499652H240.014574c-8.799528 0-15.999143-7.199614-15.999143-15.999143v-43.997642c0-2.199882 1.799904-3.999786 3.999786-3.999786h567.969566c2.199882 0 3.999786 1.799904 3.999786 3.999786v43.997642c0 8.799528-7.199614 15.999143-15.999143 15.999143zM491.601093 350.074383c-6.499652-24.198703-22.898773-44.497616-45.297573-55.897005-3.499812-1.799904-7.599593-2.199882-11.399389-1.199936l-18.998982 5.099727c-3.999786 1.099941-7.499598 3.699802-9.599485 7.299609-7.799582 12.999303-11.799368 27.698516-11.799368 42.597717 0 7.199614 0.899952 14.399228 2.79985 21.498848l99.894647 372.680031c2.299877 8.499545 11.099405 13.599271 19.59895 11.299394l61.796688-16.59911c8.499545-2.299877 13.599271-11.099405 11.299395-19.59895l-98.294733-367.180325zM591.995714 399.971709c-17.699052 0-31.998285 14.299234-31.998286 31.998286s14.299234 31.998285 31.998286 31.998285 31.998285-14.299234 31.998285-31.998285-14.299234-31.998285-31.998285-31.998286z"  horiz-adv-x="1024" />

    
    <glyph glyph-name="knowledge-full" unicode="&#59549;" d="M996.1 546.3l24.2 6.5c2.2 0.6 3.7 2.6 3.7 4.8v50.6c0 2.2-1.5 4.2-3.7 4.8l-11.1 3.1L616 725.4c-11.2 3.1-22.7 4.7-34.3 4.7-4.8 0-9.6-0.3-14.4-0.8L56.8 671.4C24.5 667.8 0 640.4 0 607.8v-385.1c0-25.9 15.6-49.2 39.5-59.1l449.9-186.4 66.2-27.4c1.4-0.6 2.8-0.9 4.3-0.9 1.3-0.1 2.6-0.1 3.9-0.1 9.6 0 19.4 1.2 29.1 3.8l427.8 114.6c1.9 0.5 3.3 2.3 3.3 4.3v57.1c0 2.5-2 4.4-4.4 4.4-0.4 0-0.8 0-1.1-0.1l-17.5-4.7c-2-0.5-4.2 0.6-4.8 2.6-13.3 40.1-8 74-2.8 92.7 0.4 1.4 1.4 2.4 2.8 2.8l24.2 6.5c2.2 0.6 3.7 2.6 3.7 4.8v50.9c0 1.1-0.3 2.2-1 3-0.9 1-2.1 1.5-3.4 1.5-0.4 0-0.8 0-1.1-0.1l-17.5-4.7c-2-0.5-4.2 0.6-4.8 2.6-13.3 40.1-8 74-2.8 92.7 0.4 1.4 1.4 2.4 2.8 2.8l24.2 6.5c2.2 0.6 3.7 2.6 3.7 4.8v50.9c0 1.1-0.3 2.2-1 3-0.9 1-2.1 1.5-3.4 1.5-0.4 0-0.8 0-1.1-0.1l-17.5-4.7c-2-0.5-4.2 0.6-4.8 2.6-13.3 40.1-8 74-2.8 92.7 0.1 1.4 1.1 2.4 2.5 2.8z m-617.8 1.5L169.2 612c-4.1 1.3-3.6 7.3 0.7 7.8l413.8 46.8c2 0.2 4.1 0.1 6.1-0.5l283.6-78.8c3.9-1.1 3.9-6.7 0-7.7l-157.3-42.2-121.7-32.6-37.3-10c-1.1-0.3-2.2-0.4-3.2-0.4-1.3 0-2.5 0.2-3.7 0.6l-18.6 5.7-153.3 47.1z m553-438.3l-354.9-95.1c-4.1-1.1-8.3-1.7-12.5-1.7-1.3 0-2.6 0.1-3.9 0.2-20 1.6-37.1 15.8-42.4 35.4-3.3 12.4-1.6 25.3 4.8 36.4 6.4 11.1 16.8 19 29.2 22.4l6.6 1.8 1.8 0.5 359.7 96.4c2.7 0.7 5.3-1.5 5-4.2-2.2-24.5-0.8-54.4 9.4-87 0.7-2.2-0.6-4.5-2.8-5.1z m0 160l-354.9-95.1c-4.1-1.1-8.3-1.7-12.5-1.7-1.3 0-2.6 0.1-3.9 0.2-4.9 0.4-9.6 1.5-14 3.4-13.6 5.5-24.4 17.2-28.3 32.1-3.3 12.4-1.6 25.3 4.8 36.4 6.4 11.1 16.8 19 29.2 22.4l6.6 1.8 1.8 0.5 155.8 41.7 121.7 32.6 82.2 22c2.7 0.7 5.3-1.5 5-4.2-2.2-24.5-0.8-54.4 9.4-87 0.6-2.2-0.7-4.5-2.9-5.1z m0 160l-204.9-54.9L604.7 342l-28.3-7.6c-4.1-1.1-8.3-1.7-12.5-1.7-1.3 0-2.6 0.1-3.9 0.2-4.6 0.4-9.1 1.4-13.3 3.1-0.5 0.2-1 0.4-1.4 0.7l-7.9 4.3c-0.5 0.3-0.9 0.5-1.4 0.8-8.8 6.3-15.5 15.6-18.4 26.6-3.2 12.1-1.7 24.8 4.4 35.7 0.1 0.3 0.3 0.5 0.4 0.7 6.4 11.1 16.8 19 29.2 22.4l8.4 2.3 155.8 41.7 121.7 32.6 82.2 22c2.7 0.7 5.3-1.5 5-4.2-2.2-24.5-0.8-54.4 9.4-87 0.7-2.2-0.6-4.5-2.8-5.1z"  horiz-adv-x="1024" />

    
    <glyph glyph-name="read-full" unicode="&#59550;" d="M575.968765 767.062958H447.531479c-35.282772 0-63.968765-28.586042-63.968765-63.968766v-766.625671c0-35.282772 28.685993-63.968765 63.968765-63.968765H575.968765c35.282772 0 63.968765 28.685993 63.968766 63.968765v766.625671c0 35.382723-28.685993 63.968765-63.968766 63.968766zM512-0.06246899999996458c-17.691362 0-31.984383 14.293021-31.984383 31.984382 0 8.795705 3.598243 16.791801 9.395413 22.58897 5.797169 5.797169 13.793265 9.395412 22.58897 9.395413s16.791801-3.598243 22.58897-9.395413c5.797169-5.797169 9.395412-13.793265 9.395413-22.58897s-3.598243-16.791801-9.395413-22.58897c-5.797169-5.797169-13.793265-9.395412-22.58897-9.395412z m31.984383 631.691556v-495.75793c0-4.397853-3.598243-7.996096-7.996096-7.996096h-47.976574c-4.397853 0-7.996096 3.598243-7.996096 7.996096V631.629087c0 4.397853 3.598243 7.996096 7.996096 7.996096h47.976574c4.397853 0 7.996096-3.598243 7.996096-7.996096zM863.828209 864.015617H735.390922c-35.282772 0-63.968765-28.586042-63.968765-63.968765v-767.625183c0-35.282772 28.685993-63.968765 63.968765-63.968765H863.828209c35.282772 0 63.968765 28.685993 63.968765 63.968765v767.625183c0 35.382723-28.685993 63.968765-63.968765 63.968765zM799.859444 95.89067799999998c-17.691362 0-31.984383 14.293021-31.984383 31.984383 0 8.795705 3.598243 16.791801 9.395412 22.58897 5.797169 5.797169 13.793265 9.395412 22.588971 9.395413s16.791801-3.598243 22.58897-9.395413c5.797169-5.797169 9.395412-13.793265 9.395412-22.58897s-3.598243-16.791801-9.395412-22.58897c-5.797169-5.797169-13.793265-9.395412-22.58897-9.395413z m22.58897 585.1143c-5.797169-5.797169-13.793265-9.395412-22.58897-9.395412-17.691362 0-31.984383 14.293021-31.984383 31.984382 0 8.795705 3.598243 16.791801 9.395412 22.58897 5.797169 5.797169 13.793265 9.395412 22.588971 9.395413s16.791801-3.598243 22.58897-9.395413c5.797169-5.797169 9.395412-13.793265 9.395412-22.58897s-3.598243-16.791801-9.395412-22.58897zM831.843826 606.641288v-374.816983c0-4.397853-3.598243-7.996096-7.996095-7.996096h-47.976574c-4.397853 0-7.996096 3.598243-7.996096 7.996096V606.641288c0 4.397853 3.598243 7.996096 7.996096 7.996096h47.976574c4.397853 0 7.996096-3.598243 7.996095-7.996096zM288.109322 896H159.672035c-35.282772 0-63.968765-28.586042-63.968765-63.968765v-895.562714c0-35.282772 28.685993-63.968765 63.968765-63.968765H288.109322c35.282772 0 63.968765 28.685993 63.968765 63.968765v895.562714c0 35.382723-28.685993 63.968765-63.968765 63.968765zM224.140556-0.06246899999996458c-17.691362 0-31.984383 14.293021-31.984382 31.984382 0 8.795705 3.598243 16.791801 9.395412 22.58897 5.797169 5.797169 13.793265 9.395412 22.58897 9.395413s16.791801-3.598243 22.588971-9.395413c5.797169-5.797169 9.395412-13.793265 9.395412-22.58897s-3.598243-16.791801-9.395412-22.58897c-5.797169-5.797169-13.793265-9.395412-22.588971-9.395412z m31.984383 760.628599v-495.757931c0-4.397853-3.598243-7.996096-7.996096-7.996096h-47.976574c-4.397853 0-7.996096 3.598243-7.996095 7.996096V760.5661299999999c0 4.397853 3.598243 7.996096 7.996095 7.996095h47.976574c4.397853 0 7.996096-3.598243 7.996096-7.996095zM894.81308-64.03123500000004H703.906296c-17.691362 0-31.984383-14.293021-31.984383-31.984382s14.293021-31.984383 31.984383-31.984383h190.906784c17.691362 0 31.984383 14.293021 31.984382 31.984383s-14.293021 31.984383-31.984382 31.984382z"  horiz-adv-x="1024" />

    


  </font>
</defs>
</svg>
